[Arukoru] Manaria Friends (Mysteria Friends) - Episode 04 - Test Time [1080p x265 10bit WEB Multi-Sub AAC]

Category:
Date:
2019-02-11 04:15 UTC
Submitter:
Seeders:
7
Information:
No information.
Leechers:
0
File size:
142.8 MiB
Completed:
45
Info hash:
7e1c00d39f4d71052e4996345e739fc28bde1a30
[![Arukoru-Manaria-Friends-Mysteria-Friends-Episode-04-Test.png](http://i.postimg.cc/RCjQnCdk/Arukoru-Manaria-Friends-Mysteria-Friends-Episode-04-Test.png)](http://postimg.cc/14rNkQLB) [![Arukoru-Manaria-Friends-Mysteria-Friends-Episode-04-Test.png](http://i.postimg.cc/3JmjjMbd/Arukoru-Manaria-Friends-Mysteria-Friends-Episode-04-Test.png)](http://postimg.cc/jLqJK1Tb) [![Arukoru-Manaria-Friends-Mysteria-Friends-Episode-04-Test.png](http://i.postimg.cc/zGNC0d9p/Arukoru-Manaria-Friends-Mysteria-Friends-Episode-04-Test.png)](http://postimg.cc/rKhRp9yt) Format : Matroska Format version : Version 4 File size : 143 MiB Duration : 14 min 47 s Overall bit rate : 1 349 kb/s Encoded date : UTC 2019-02-11 03:53:36 Writing application : mkvmerge v29.0.0 ('Like It Or Not') 64-bit Writing library : libebml v1.3.6 + libmatroska v1.4.9 / Lavf58.20.100 Video ID : 1 Format : HEVC Format/Info : High Efficiency Video Coding Format profile : Main 10@L4@Main Codec ID : V_MPEGH/ISO/HEVC Duration : 14 min 47 s Bit rate : 1 218 kb/s Width : 1 920 pixels Height : 1 080 pixels Display aspect ratio : 16:9 Frame rate mode : Constant Frame rate : 23.976 (24000/1001) FPS Color space : YUV Chroma subsampling : 4:2:0 Bit depth : 10 bits Bits/(Pixel*Frame) : 0.024 Stream size : 129 MiB (90%) Writing library : x265 2.9:[Windows][GCC 7.1.0][64 bit] 10bit Default : Yes Forced : No Color range : Limited Color primaries : BT.709 Transfer characteristics : BT.709 Matrix coefficients : BT.709 Audio ID : 2 Format : AAC LC Format/Info : Advanced Audio Codec Low Complexity Codec ID : A_AAC-2 Duration : 14 min 47 s Bit rate : 128 kb/s Channel(s) : 2 channels Channel layout : L R Sampling rate : 44.1 kHz Frame rate : 43.066 FPS (1024 SPF) Compression mode : Lossy Stream size : 13.5 MiB (9%) Language : Japanese Default : Yes Forced : No Text #1 ID : 3 Format : ASS Codec ID : S_TEXT/ASS Codec ID/Info : Advanced Sub Station Alpha Duration : 12 min 53 s Bit rate : 38 b/s Count of elements : 60 Compression mode : Lossless Stream size : 3.63 KiB (0%) Language : English Default : Yes Forced : Yes Text #2 ID : 4 Format : ASS Codec ID : S_TEXT/ASS Codec ID/Info : Advanced Sub Station Alpha Duration : 12 min 53 s Bit rate : 49 b/s Count of elements : 58 Compression mode : Lossless Stream size : 4.65 KiB (0%) Language : Arabic Default : No Forced : No Text #3 ID : 5 Format : ASS Codec ID : S_TEXT/ASS Codec ID/Info : Advanced Sub Station Alpha Duration : 12 min 53 s Bit rate : 37 b/s Count of elements : 58 Compression mode : Lossless Stream size : 3.51 KiB (0%) Language : German Default : No Forced : No Text #4 ID : 6 Format : ASS Codec ID : S_TEXT/ASS Codec ID/Info : Advanced Sub Station Alpha Duration : 12 min 53 s Bit rate : 34 b/s Count of elements : 56 Compression mode : Lossless Stream size : 3.24 KiB (0%) Language : Spanish Default : No Forced : No Text #5 ID : 7 Format : ASS Codec ID : S_TEXT/ASS Codec ID/Info : Advanced Sub Station Alpha Duration : 12 min 53 s Bit rate : 34 b/s Count of elements : 56 Compression mode : Lossless Stream size : 3.23 KiB (0%) Title : Mexico Language : Spanish Default : No Forced : No Text #6 ID : 8 Format : ASS Codec ID : S_TEXT/ASS Codec ID/Info : Advanced Sub Station Alpha Duration : 12 min 53 s Bit rate : 37 b/s Count of elements : 56 Compression mode : Lossless Stream size : 3.54 KiB (0%) Language : French Default : No Forced : No Text #7 ID : 9 Format : ASS Codec ID : S_TEXT/ASS Codec ID/Info : Advanced Sub Station Alpha Duration : 12 min 53 s Bit rate : 38 b/s Count of elements : 60 Compression mode : Lossless Stream size : 3.65 KiB (0%) Language : Italian Default : No Forced : No Text #8 ID : 10 Format : ASS Codec ID : S_TEXT/ASS Codec ID/Info : Advanced Sub Station Alpha Duration : 12 min 53 s Bit rate : 38 b/s Count of elements : 63 Compression mode : Lossless Stream size : 3.66 KiB (0%) Language : Portuguese Default : No Forced : No Text #9 ID : 11 Format : ASS Codec ID : S_TEXT/ASS Codec ID/Info : Advanced Sub Station Alpha Duration : 13 min 8 s Bit rate : 57 b/s Count of elements : 63 Compression mode : Lossless Stream size : 5.54 KiB (0%) Language : Russian Default : No Forced : No Source: CR WEB-DL

File list

  • [Arukoru] Manaria Friends (Mysteria Friends) - Episode 04 - Test Time [1080p x265 10bit WEB Multi-Sub AAC].mkv (142.8 MiB)

Comments - 0