Bang Dream 2nd season Ep 6 [720p 60fps ]

Category:
Date:
2019-02-11 02:11 UTC
Submitter:
Anonymous
Seeders:
0
Information:
No information.
Leechers:
0
File size:
383.3 MiB
Completed:
6
Info hash:
6fd535f55d988ad4cb0ae42e5cda319c6c205df5
*stuttering fix General Unique ID : 129244577285283486239774517018575540306 (0x613B99A3B6FDEBBA0417928F61CC9052) Complete name : Format : Matroska Format version : Version 4 / Version 2 File size : 383 MiB Duration : 24 min 25 s Overall bit rate : 2 195 kb/s Encoded date : UTC 2019-02-11 01:44:56 Writing application : mkvmerge v28.2.0 ('The Awakening') 32-bit Writing library : libebml v1.3.6 + libmatroska v1.4.9 Video ID : 1 Format : AVC Format/Info : Advanced Video Codec Format profile : High@L4.2 Format settings : CABAC / 4 Ref Frames Format settings, CABAC : Yes Format settings, ReFrames : 4 frames Codec ID : V_MPEG4/ISO/AVC Duration : 24 min 25 s Bit rate : 2 000 kb/s Width : 1 280 pixels Height : 720 pixels Display aspect ratio : 16:9 Frame rate mode : Constant Frame rate : 60.000 FPS Color space : YUV Chroma subsampling : 4:2:0 Bit depth : 8 bits Scan type : Progressive Bits/(Pixel*Frame) : 0.036 Stream size : 349 MiB (91%) Writing library : x264 core 155 r2901 7d0ff22 Encoding settings : cabac=1 / ref=3 / deblock=1:0:0 / analyse=0x3:0x111 / me=hex / subme=5 / psy=1 / psy_rd=1.00:0.00 / mixed_ref=1 / me_range=16 / chroma_me=1 / trellis=0 / 8x8dct=1 / cqm=0 / deadzone=21,11 / fast_pskip=0 / chroma_qp_offset=0 / threads=9 / lookahead_threads=2 / sliced_threads=0 / nr=0 / decimate=1 / interlaced=0 / bluray_compat=0 / constrained_intra=0 / bframes=3 / b_pyramid=2 / b_adapt=1 / b_bias=0 / direct=3 / weightb=1 / open_gop=0 / weightp=1 / keyint=250 / keyint_min=25 / scenecut=40 / intra_refresh=0 / rc_lookahead=0 / rc=2pass / mbtree=0 / bitrate=2000 / ratetol=1.0 / qcomp=0.50 / qpmin=0 / qpmax=69 / qpstep=4 / cplxblur=20.0 / qblur=0.5 / vbv_maxrate=62500 / vbv_bufsize=78125 / nal_hrd=none / filler=0 / ip_ratio=1.40 / pb_ratio=1.30 / aq=0 Default : Yes Forced : Yes Color range : Limited Matrix coefficients : BT.470 System B/G Audio ID : 2 Format : AAC Format/Info : Advanced Audio Codec Format profile : LC Codec ID : A_AAC-2 Duration : 24 min 25 s Bit rate : 192 kb/s Channel(s) : 2 channels Channel positions : Front: L R Sampling rate : 48.0 kHz Frame rate : 46.875 FPS (1024 SPF) Compression mode : Lossy Delay relative to video : 12 ms Stream size : 33.7 MiB (9%) Default : Yes Forced : No Text ID : 3 Format : ASS Codec ID : S_TEXT/ASS Codec ID/Info : Advanced Sub Station Alpha Duration : 23 min 37 s Bit rate : 137 b/s Count of elements : 437 Compression mode : Lossless Stream size : 23.8 KiB (0%) Default : Yes Forced : No

File list

  • Bang Dream 2nd season Ep 6 [720p 60fps ] .mkv (383.3 MiB)

Comments - 0